#TITLE:Pink Panther Theme;
#SUBTITLE:jesus hax you steps;
#ARTIST:Punk Covers;
#TITLETRANSLIT:;
#SUBTITLETRANSLIT:;
#ARTISTTRANSLIT:;
#CREDIT:derick Jones;
#BANNER:pinkpanther-bn.bmp;
#BACKGROUND:pinkpanther-bg.bmp;
#LYRICSPATH:;
#CDTITLE:;
#MUSIC:Punk Covers - Punk Covers - Pink Panther.mp3;
#OFFSET:0.000;
#SAMPLESTART:40.268;
#SAMPLELENGTH:12.000;
#SELECTABLE:YES;
#BPMS:0.000=149.000;
#STOPS:;
#BGCHANGES:;
// cache tags:
#FIRSTBEAT:5.500;
#LASTBEAT:163.250;
#SONGFILENAME:Songs/Music V.I.P ^_^/Pink Panther/PinkPanther.sm;
#HASMUSIC:1;
#HASBANNER:1;
#MUSICLENGTH:67.351;
// end cache tags

//---------------dance-single - Blank----------------
#NOTES:
     dance-single:
     Blank:
     Challenge:
     13:
     0.802,1.000,0.624,0.297,1.000,316.000,42.000,20.000,0.000,0.000:

0000
0000
0000
0000
,
0000
0000
0000
1000
0100
0000
0010
0002
,
0000
0003
0000
0000
2000
0000
0000
0000
,
3002
0000
0000
0000
0000
0000
1003
0100
,
0000
0010
0200
0000
0000
0000
0300
2000
,
0000
3000
0002
0000
,
0003
0000
0001
1000
0000
1000
0200
0000
,
0000
0300
2000
0000
0000
0000
3000
0002
,
0000
0000
0000
0000
0000
0000
0000
0000
0000
0003
0000
0000
0000
0000
0000
0000
0000
0000
1000
0000
0110
0000
0000
0000
,
0001
0210
0000
0000
0000
0000
0300
0000
0000
2200
0000
0000
,
0000
0000
0000
0000
0000
0000
3300
0000
0011
0000
0000
0000
0000
0000
0000
1100
0000
0000
0000
0000
0000
0011
0000
0000
,
1000
0100
0010
0001
0000
0000
1000
0100
,
0000
0000
1000
0100
0010
0001
0010
0100
,
1000
0100
0010
2002
0000
0000
3003
0000
,
0000
1000
0100
0010
0011
0000
0000
0000
,
0000
1000
0100
1000
0001
0000
0000
0100
,
0010
0000
0000
1000
0100
0010
0100
1000
,
0100
0010
0001
1100
0220
0000
0000
0000
,
0000
0000
0000
0330
,
0000
1000
0100
0010
1001
0000
0000
1000
,
0100
0000
0000
0001
0010
0001
1000
0001
,
0010
1000
0001
0100
2002
0000
0000
3003
,
0100
1000
0100
0010
0100
0000
0000
0000
,
1000
0000
0000
0100
0000
0000
0010
0000
0000
0001
0000
0000
1100
0000
0000
0000
0000
0000
1000
0000
0000
0000
0001
0000
,
1000
0000
0000
1000
0001
0000
0100
0010
0000
0000
0010
0000
,
0000
0000
0010
0000
0000
0010
0000
0000
1000
0000
0001
1000
,
0000
0000
0000
0000
0100
0000
0000
0000
0000
0000
0000
0000
0000
0000
0000
1100
0000
0000
0000
0000
0000
2002
0000
0000
,
0000
0000
0000
0000
0000
0000
3003
0000
0000
0000
0000
0000
0000
0000
0000
0000
0000
0000
0000
0000
0000
1000
0100
0010
,
0001
1000
0100
0010
0001
0000
1000
0000
0000
0100
0000
0000
0010
0000
0000
0001
0000
0000
1001
0100
0010
0001
1000
0100
,
0010
0100
1000
1100
0010
0001
0010
1000
0100
0010
0001
1000
0011
0010
0100
1000
0100
0001
0010
0001
1000
0110
0100
0010
,
1000
0001
0010
0100
0010
0001
1100
0100
0010
0001
1000
0100
0010
0100
1000
0100
0010
0001
0011
0001
0010
0100
1000
0100
,
0010
0100
0010
1001
0001
0010
0100
1000
0100
0010
0001
0010
0100
0010
1000
0100
0010
0000
1000
0000
0000
0100
0000
0000
,
0011
0000
1000
0100
0010
0100
1000
0100
0010
1100
0001
0010
0100
1000
0010
0100
0001
1000
0011
0100
0010
0001
0010
0100
,
1000
0001
0010
1100
0100
0010
0001
0010
0100
1000
0100
0010
0001
0010
0100
1001
0000
0000
0000
0000
0000
1001
0000
0000
,
0000
1001
0000
1001
0000
1001
0000
1000
,
0100
0000
0000
0010
0000
0000
1100
0100
0010
0001
0010
0100
1000
0100
0010
1001
0100
0010
0001
1000
0100
0010
0100
0010
,
0001
0000
0000
1100
0000
0000
0010
0000
0001
0000
0100
0000
1000
0000
0100
0000
0010
0000
0100
0000
0001
0000
0010
0000
0011
0000
0100
0000
0010
0000
0001
0000
0010
0000
0100
0000
1000
0000
0100
0000
0010
0000
1100
0000
0001
0000
0010
0000
,
0100
0000
0010
0000
1000
0000
0100
0000
0010
0000
0001
0000
0010
0000
0000
1100
0000
0000
0000
0000
0010
0000
0001
0000
0010
0000
1000
0000
0100
0000
0010
0000
0000
0011
0000
0000
0000
0000
1000
0000
0100
0000
0010
0000
0001
0000
0010
0000
,
1001
0000
0000
1000
0000
0100
0000
0011
0000
0000
0000
0010
0000
0001
1000
0000
,
1000
0100
0000
0100
0010
0000
0000
0010
0000
0000
0010
0000
0000
0010
0000
0000
,
0010
0000
1000
0100
0000
0100
0000
0000
0000
1001
0000
0000
0000
1001
0000
0000
;
